YouTubeが、もはや誰得な4k画質を準備中

YouTubeから久しぶりにビックリなニュースw

Today at the VidCon 2010 conference, we announced support for videos shot in 4K, meaning that now we support original video resolution from 360p all the way up to 4K.

via: YouTube Blog: What's bigger than 1080p? 4K video comes to YouTube

現時点での最高画質FullHD(1080p)の4倍にあたる 4096 x 2304 px の画質を準備中だそうです。

すでにサンプル動画がUPされているもよう。

embedのプレイヤーにはまだ4k画質を見るための「Original」メニューは存在しないみたいですが。

fmt番号は「38」が割り振られるようで、fmt_mapにも反映されています。
正式ローンチの際はYouTube HD Suiteなど各スクリプトにも反映可能って事になりますが・・・

この画質を普通に再生できるPCは存在するのか?

試しにサンプルをDLして、ローカルでVLCを使って再生したりしてみましたが、まあカクカクどころの話じゃないわけで。そこまで求めてないんだけどなぁとか。

ついでに、ffmpegで見てみたコーデックなど諸情報。

  Duration: 00:01:53.69, start: 0.000000, bitrate: 6566 kb/s
    Stream #0.0(und): Audio: aac, 48000 Hz, stereo, s16
    Stream #0.1(und): Video: h264, yuv420p, 4096x2304, 23.98 tb(r)

うーん、本当に何ターゲットなんだろうか。

同じカテゴリーの記事

このページの一番上に戻る
  • Facebook
  • Twitter
  • Tumblr
  • Instagram
  • miil